游戏盘是二次元ACG动漫游戏资源搜索引擎,每天稳定更新2-300个资源,赞助会员无限下载。

首页
全部标签
原神
刻晴
祢豆子
不知火舞
黑兽
玩偶姐姐
AI少女
恋爱活动

[影视资源]【2022日影】[MagicStar] Pure Japanese / ピュア・ジャパニーズ [WEBDL] [1080p] [AMZN]【生】【附日字】

游戏盘 2022-08-06


簡介: 

HD 1080p from Prime Video.
Use CBR bitrate mode. Japanese subtitles added.

General Unique ID : 207977391749873957619184101659779927943 (0x9C76FD185749BE9C3DBFE9017DAA0F87) Complete name : Pure.Japanese.2022.1080p.AMZN.WEB-DL.DDP5.1.H.264-MagicStar.mkv Format : Matroska Format version : Version 4 File size : 5.53 GiB Duration : 1 h 27 min Overall bit rate mode : Constant Overall bit rate : 9 036 kb/s Encoded date : UTC 2022-08-05 11:01:28 Writing application : mkvmerge v50.0.0 ('Awakenings') 64-bit Writing library : libebml v1.4.0 + libmatroska v1.6.2 Cover : Yes Attachments : cover.png Video ID : 1 Format : AVC Format/Info : Advanced Video Codec Format profile : [email protected] Format settings : CABAC / 4 Ref Frames Format settings, CABAC : Yes Format settings, Reference fra : 4 frames Codec ID : V_MPEG4/ISO/AVC Duration : 1 h 27 min Bit rate mode : Constant Bit rate : 8 394 kb/s Nominal bit rate : 10 000 kb/s Width : 1 920 pixels Height : 1 040 pixels Display aspect ratio : 1.85:1 Frame rate mode : Constant Frame rate : 23.976 (24000/1001) FPS Color space : YUV Chroma subsampling : 4:2:0 Bit depth : 8 bits Scan type : Progressive Bits/(Pixel*Frame) : 0.175 Stream size : 5.14 GiB (93%) Default : Yes Forced : No Color range : Limited Color primaries : BT.709 Transfer characteristics : BT.709 Matrix coefficients : BT.709 Audio ID : 2 Format : E-AC-3 Format/Info : Enhanced AC-3 Commercial name : Dolby Digital Plus Codec ID : A_EAC3 Duration : 1 h 27 min Bit rate mode : Constant Bit rate : 640 kb/s Channel(s) : 6 channels Channel layout : L R C LFE Ls Rs Sampling rate : 48.0 kHz Frame rate : 31.250 FPS (1536 SPF) Compression mode : Lossy Stream size : 401 MiB (7%) Language : Japanese Service kind : Complete Main Default : Yes Forced : No


 本文章含有隐藏内容,点击获取资源后解锁。


标签: