游戏盘是二次元ACG动漫游戏资源搜索引擎,每天稳定更新2-300个资源,赞助会员无限下载。

首页
全部标签
原神
刻晴
祢豆子
不知火舞
黑兽
玩偶姐姐
AI少女
恋爱活动

[影视资源][MagicStar] 租借女友 / 彼女、お借りします EP04 [WEBDL] [1080p] [HULU]【生】【附日字】

游戏盘 2022-08-05


簡介: 

HD 1080p from HULU JAPAN.

General Unique ID : 82525794254451548794597862840130287098 (0x3E15E3CC27865D2D1E978018F00735FA) Complete name : Kanojo.Okarishimasu.EP04.1080p.HULU.WEB-DL.AAC2.0.H.264-MagicStar.mkv Format : Matroska Format version : Version 4 File size : 683 MiB Duration : 23 min 30 s Overall bit rate : 4 062 kb/s Encoded date : UTC 2022-08-02 19:24:24 Writing application : mkvmerge v50.0.0 ('Awakenings') 64-bit Writing library : libebml v1.4.0 + libmatroska v1.6.2 Cover : Yes Attachments : cover.png Video ID : 1 Format : AVC Format/Info : Advanced Video Codec Format profile : [email protected] Format settings : CABAC / 4 Ref Frames Format settings, CABAC : Yes Format settings, Reference fra : 4 frames Codec ID : V_MPEG4/ISO/AVC Duration : 23 min 30 s Bit rate : 3 934 kb/s Width : 1 920 pixels Height : 1 080 pixels Display aspect ratio : 16:9 Frame rate mode : Constant Frame rate : 29.970 (29970/1000) FPS Original frame rate : 29.970 (30000/1001) FPS Color space : YUV Chroma subsampling : 4:2:0 Bit depth : 8 bits Scan type : Progressive Bits/(Pixel*Frame) : 0.063 Stream size : 661 MiB (97%) Default : Yes Forced : No Color range : Limited Color primaries : BT.709 Transfer characteristics : BT.709 Matrix coefficients : BT.709 Audio ID : 2 Format : AAC LC Format/Info : Advanced Audio Codec Low Complexity Codec ID : A_AAC-2 Duration : 23 min 30 s Bit rate : 125 kb/s Channel(s) : 2 channels Channel layout : L R Sampling rate : 48.0 kHz Frame rate : 46.875 FPS (1024 SPF) Compression mode : Lossy Stream size : 21.1 MiB (3%) Language : Japanese Default : Yes Forced : No


 本文章含有隐藏内容,点击获取资源后解锁。


标签: