游戏盘是二次元ACG动漫游戏资源搜索引擎,每天稳定更新2-300个资源,赞助会员无限下载。

首页
全部标签
原神
刻晴
祢豆子
不知火舞
黑兽
玩偶姐姐
AI少女
恋爱活动

[影视资源][MagicStar] 异世界居酒屋 阿信 第二季 ~魔女与大主教篇~ / 異世界居酒屋 のぶ Season2 ~魔女と大司教編~ EP09 [HDTV] [1080p]【生】

游戏盘 2022-08-05


簡介: 

HD 1080p from WOWOW Prime.

General Unique ID : 214878862648253007227085790010578067294 (0xA1A829E19FFFD22F9131FAB8C2D45F5E) Complete name : [MagicStar] Isekai Izakaya Nobu Season2 ~Majo to Daishikyou-hen~ EP09 [HDTV] [1080p].mkv Format : Matroska Format version : Version 2 File size : 1.06 GiB Duration : 26 min 45 s Overall bit rate : 5 693 kb/s Encoded date : UTC 2022-08-01 01:45:10 Writing application : mkvmerge v8.5.2 ('Crosses') 32bit Writing library : libebml v1.3.3 + libmatroska v1.4.4 Video ID : 1 Format : AVC Format/Info : Advanced Video Codec Format profile : [email protected] Format settings : CABAC / 4 Ref Frames Format settings, CABAC : Yes Format settings, Reference fra : 4 frames Codec ID : V_MPEG4/ISO/AVC Duration : 26 min 45 s Bit rate : 5 502 kb/s Width : 1 920 pixels Height : 1 080 pixels Display aspect ratio : 16:9 Frame rate mode : Constant Frame rate : 29.970 (30000/1001) FPS Color space : YUV Chroma subsampling : 4:2:0 Bit depth : 8 bits Scan type : Progressive Bits/(Pixel*Frame) : 0.089 Stream size : 1.03 GiB (97%) Writing library : x264 core 148 r2638 7599210 Encoding settings : cabac=1 / ref=3 / deblock=1:0:0 / analyse=0x3:0x113 / me=umh / subme=8 / psy=1 / psy_rd=1.00:0.00 / mixed_ref=0 / me_range=16 / chroma_me=1 / trellis=2 / 8x8dct=1 / cqm=0 / deadzone=21,11 / fast_pskip=1 / chroma_qp_offset=-2 / threads=24 / lookahead_threads=4 / sliced_threads=0 / nr=0 / decimate=1 / interlaced=0 / bluray_compat=0 / constrained_intra=0 / bframes=3 / b_pyramid=2 / b_adapt=2 / b_bias=0 / direct=3 / weightb=1 / open_gop=0 / weightp=2 / keyint=300 / keyint_min=29 / scenecut=40 / intra_refresh=0 / rc_lookahead=40 / rc=crf / mbtree=1 / crf=18.0 / qcomp=0.60 / qpmin=0 / qpmax=69 / qpstep=4 / ip_ratio=1.40 / aq=1:1.00 Default : Yes Forced : No Audio ID : 2 Format : AAC LC Format/Info : Advanced Audio Codec Low Complexity Codec ID : A_AAC-2 Duration : 26 min 44 s Bit rate : 192 kb/s Channel(s) : 2 channels Channel layout : L R Sampling rate : 48.0 kHz Frame rate : 46.875 FPS (1024 SPF) Compression mode : Lossy Stream size : 36.1 MiB (3%) Language : Japanese Default : Yes Forced : No


 本文章含有隐藏内容,点击获取资源后解锁。


标签: